Oculus 2013 BRRip XviD AC3-SANTi

Bild anzeigen

Information:

Code:

http://www.imdb.com/title/tt2388715/
Language: English / Subs: English
Source: 1080p SPARKS

General
Format                        : AVI
Format/Info                    : Audio Video Interleave
File size                      : 1.43 GiB
Duration                      : 1h 44mn
Overall bit rate              : 1 968 Kbps
Writing application            : VirtualDubMod 1.5.10.3 | www.virtualdub-fr.org || (build 2550/release)
Writing library                : VirtualDubMod build 2550/release

Video
ID                            : 0
Format                        : MPEG-4 Visual
Format profile                : Advanced Simple@L5
Format settings, BVOP          : Yes
Format settings, QPel          : No
Format settings, GMC          : No warppoints
Format settings, Matrix        : Default (MPEG)
Codec ID                      : XVID
Codec ID/Hint                  : XviD
Duration                      : 1h 44mn
Bit rate                      : 1 511 Kbps
Width                          : 720 pixels
Height                        : 304 pixels
Display aspect ratio          : 2.35:1
Frame rate                    : 23.976 fps
Color space                    : YUV
Chroma subsampling            : 4:2:0
Bit depth                      : 8 bits
Scan type                      : Progressive
Compression mode              : Lossy
Bits/(Pixel*Frame)            : 0.288
Stream size                    : 1.10 GiB (77%)
Writing library                : XviD 1.2.1 (UTC 2008-12-04)

Audio
ID                            : 1
Format                        : AC-3
Format/Info                    : Audio Coding 3
Mode extension                : CM (complete main)
Format settings, Endianness    : Big
Codec ID                      : 2000
Duration                      : 1h 44mn
Bit rate mode                  : Constant
Bit rate                      : 448 Kbps
Channel(s)                    : 6 channels
Channel positions              : Front: L C R, Side: L R, LFE
Sampling rate                  : 48.0 KHz
Bit depth                      : 16 bits
Compression mode              : Lossy
Stream size                    : 333 MiB (23%)
Alignment                      : Split accross interleaves
Interleave, duration          : 42 ms (1.00 video frame)
Interleave, preload duration  : 500 ms

Screens:
Bild anzeigen

Bild anzeigen

Bild anzeigen

Share-Online.biz

Code:

ZCYXP59N0KR
RIWWP59N29

Uploaded.net

Code:

santi-oc.part1.rar
santi-oc.part2.rar