Any:
2009
Categories:
Pel·lícula, Producció Catalana, TVmovie
Generes:
Thriller
Descripció:
DURADA: 86 minuts. – MIDA: 3.2 G

Producció: Televisió de Catalunya, Castelao Productions i Media Films Int., 2009 Direcció: Andrea Traina Guió: Giovanni Gafà i Andrea Traina Director de fotografia: Andreu Rebés Música: Salvador Niebla, Joseph Mas ( Kitflus) i Joan Albert Amargos Intèrprets: Alex Brendemühl (Angelo), Marian Álvarez (Lidia), Pilar Punzano (Bianca), Jordi Boixaderas (Renzo), Ana Mª Barbany (Patrizia), Aida Folch (Claudia), José Sospedra (Mauro), Jesús Ferrer (Mario) i Manuel Barceló (Alfredo)

El Renzo és un gran pianista que s’ha quedat pràcticament cec a causa d’una avançada forma de diabetis. La seva filla, la Clàudia, és una conflictiva adolescent que és expulsada de tots els reformatoris i que viu amb ell. La Clàudia sempre es fuga de casa però en una de les seves escapades presencia l’assassinat de la Bianca a mans de l’Àngelo, que és el seu veí. L’Àngelo descobreix que la Clàudia s’ha assabentat de tot i a partir d’aquí tot es precipitarà…

Spoiler

General
Unique ID : 179961394721870304316719490819355172003 (0x87634DCBEC0DE13A818EC42C9E41DCA3)
Complete name : E:\lilla2804\Downloads\El so de la mort
Format : Matroska
Format version : Version 2
File size : 3.20 GiB
Duration : 1h 26mn
Overall bit rate mode : Variable
Overall bit rate : 5 290 Kbps
Encoded date : UTC 2014-08-18 12:08:19
Writing application : mkvmerge v7.1.0 (‘Good Love’) 64bit built on Jul 27 2014 13:06:55
Writing library : libebml v1.3.0 + libmatroska v1.4.1

Video
ID : 1
Format : AVC
Format/Info : Advanced Video Codec
Format profile : Main@L4.1
Format settings, CABAC : Yes
Format settings, ReFrames : 3 frames
Codec ID : V_MPEG4/ISO/AVC
Duration : 1h 26mn
Bit rate mode : Variable
Bit rate : 5 056 Kbps
Maximum bit rate : 19.2 Mbps
Width : 1 280 pixels
Height : 720 pixels
Display aspect ratio : 16:9
Frame rate mode : Constant
Frame rate : 25.000 fps
Standard : PAL
Color space : YUV
Chroma subsampling : 4:2:0
Bit depth : 8 bits
Scan type : Progressive
Bits/(Pixel*Frame) : 0.219
Stream size : 3.06 GiB (96%)
Language : Catalan
Default : Yes
Forced : No

Audio
ID : 2
Format : E-AC-3
Format/Info : Audio Coding 3
Format settings, Endianness : Big
Codec ID : A_EAC3
Duration : 1h 26mn
Bit rate mode : Constant
Bit rate : 128 Kbps
Channel(s) : 2 channels
Channel positions : Front: L R
Sampling rate : 48.0 KHz
Compression mode : Lossy
Stream size : 79.3 MiB (2%)
Title : Català
Language : Catalan
Default : Yes
Forced : No

cortado con winrar

https://binbox.io/kAhlM#aHVo6hHs
http://www.relink.us/f/300d336fe1765e5279a2d2fc4d61f1